martes, 7 de mayo de 2013

cojiendo en el bosque con una morena sabrosa

41090 s cojiendo en el bosque con una morena sabrosa
6608991 cojiendo en el bosque con una morena sabrosa
Código:
General Complete name : /disco2/asdfeuh2/public_html/rapidleech/files/Descargas-Directas/41090.flv Format : Flash Video File size : 15.8 MiB Duration : 3mn 3s Overall bit rate : 726 Kbps Tagging application : Yet Another Metadata Injector for FLV - Version 1.2 Video Format : AVC Format/Info : Advanced Video Codec Format profile : Main@L3.0 Format settings, CABAC : Yes Format settings, ReFrames : 2 frames Codec ID : 7 Duration : 3mn 3s Bit rate : 524 Kbps Width : 640 pixels Height : 480 pixels Display aspect ratio : 4:3 Frame rate mode : Constant Frame rate : 30.016 fps Color space : YUV Chroma subsampling : 4:2:0 Bit depth : 8 bits Scan type : Progressive Bits/(Pixel*Frame) : 0.057 Stream size : 11.5 MiB (73%) Writing library : x264 core 100 Encoding settings : cabac=1 / ref=2 / deblock=1:0:0 / analyse=0x1:0x111 / me=hex / subme=6 / psy=1 / psy_rd=1.00:0.00 / mixed_ref=0 / me_range=16 / chroma_me=1 / trellis=0 / 8x8dct=0 / cqm=0 / deadzone=21,11 / fast_pskip=1 / chroma_qp_offset=-2 / threads=1 / sliced_threads=0 / nr=0 / decimate=1 / interlaced=0 / constrained_intra=0 / bframes=2 / b_pyramid=0 / b_adapt=0 / b_bias=0 / direct=1 / weightb=0 / open_gop=0 / weightp=0 / keyint=50 / keyint_min=25 / scenecut=40 / intra_refresh=0 / rc_lookahead=40 / rc=abr / mbtree=1 / bitrate=524 / ratetol=1.0 / qcomp=0.60 / qpmin=6 / qpmax=51 / qpstep=4 / ip_ratio=1.41 / aq=1:1.00 Audio Format : MPEG Audio Format version : Version 1 Format profile : Layer 3 Mode : Joint stereo Mode extension : MS Stereo Codec ID : 2 Codec ID/Hint : MP3 Duration : 3mn 3s Bit rate mode : Constant Bit rate : 192 Kbps Channel(s) : 2 channels Sampling rate : 44.1 KHz Compression mode : Lossy Delay relative to video : 33ms Stream size : 4.27 MiB (27%) Writing library : LAME3.98 
freakshare cojiendo en el bosque con una morena sabrosa

No hay comentarios.:

Publicar un comentario