miércoles, 8 de mayo de 2013

chingandome a carmelita la mas putita !

6 s chingandome a carmelita la mas putita !
6608991 chingandome a carmelita la mas putita !
Código:
General Complete name : /disco2/asdfeuh2/public_html/rapidleech/files/Descargas-Directas/6.flv Format : Flash Video File size : 26.0 MiB Duration : 11mn 35s Overall bit rate : 313 Kbps Encoded date : Wed Dec 08 11:53:55 2010 Tagging application : On2 Flix Pro v8.546win vervpxplugin : Codecs Version : 6.2.9.22 Video Format : VP6 Codec ID : 4 Duration : 11mn 35s Bit rate : 260 Kbps Width : 560 pixels Height : 420 pixels Display aspect ratio : 4:3 Frame rate mode : Constant Frame rate : 12.000 fps Bit depth : 8 bits Bits/(Pixel*Frame) : 0.092 Stream size : 21.6 MiB (83%) Audio Format : MPEG Audio Format version : Version 2 Format profile : Layer 3 Codec ID : 2 Codec ID/Hint : MP3 Duration : 11mn 35s Bit rate mode : Constant Bit rate : 40.0 Kbps Channel(s) : 1 channel Sampling rate : 22.05 KHz Compression mode : Lossy Stream size : 3.32 MiB (13%) 
Screenshot 1 chingandome a carmelita la mas putita !

No hay comentarios.:

Publicar un comentario