martes, 2 de abril de 2013

rubia Hermosa Y preciosa ! le doy un 100 !!















Código:
General
Complete name : /disco2/asdfeuh2/public_html/rapidleech/files/Descargas-Directas/17714.flv
Format : Flash Video
File size : 90.9 MiB
Duration : 23mn 31s
Overall bit rate : 540 Kbps
Encoded date : Tue Mar 05 16:44:12 2013
Tagging application : On2 Flix Pro v8.546win
vervpxplugin : Codecs Version : 6.2.9.22

Video
Format : VP6
Codec ID : 4
Duration : 23mn 31s
Bit rate : 448 Kbps
Width : 600 pixels
Height : 450 pixels
Display aspect ratio : 4:3
Frame rate mode : Constant
Frame rate : 30.000 fps
Bit depth : 8 bits
Bits/(Pixel*Frame) : 0.055
Stream size : 75.4 MiB (83%)

Audio
Format : MPEG Audio
Format version : Version 2
Format profile : Layer 3
Mode : Joint stereo
Mode extension : MS Stereo
Codec ID : 2
Codec ID/Hint : MP3
Duration : 23mn 31s
Bit rate mode : Constant
Bit rate : 64.0 Kbps
Channel(s) : 2 channels
Sampling rate : 22.05 KHz
Compression mode : Lossy
Stream size : 10.8 MiB (12%)











No hay comentarios.:

Publicar un comentario